<?xml version="1.0" standalone="no"?>
<!DOCTYPE svg PUBLIC "-//W3C//DTD SVG 1.1//EN" "http://www.w3.org/Graphics/SVG/1.1/DTD/svg11.dtd" >
<svg xmlns="http://www.w3.org/2000/svg">
<metadata>Generated by IcoMoon</metadata>
<defs>
<font id="icomoon" horiz-adv-x="1024">
<font-face units-per-em="1024" ascent="960" descent="-64" />
<missing-glyph horiz-adv-x="1024" />
<glyph unicode="&#x20;" horiz-adv-x="512" d="" />
<glyph unicode="&#xe600;" glyph-name="x" horiz-adv-x="1025" d="M984.64-51.2c-10.228 0-20.521 3.884-28.29 11.717l-943.921 943.856c-15.666 15.666-15.666 40.978 0 56.644s40.978 15.666 56.644 0l943.921-943.856c15.666-15.666 15.666-40.978 0-56.644-7.898-7.833-18.126-11.717-28.355-11.717zM40.719-51.2c-10.228 0-20.521 3.884-28.29 11.717-15.666 15.666-15.666 40.978 0 56.644l943.856 943.921c15.666 15.666 40.978 15.666 56.644 0s15.666-40.978 0-56.644l-943.856-943.921c-7.833-7.833-18.126-11.717-28.355-11.717z" />
<glyph unicode="&#xe601;" glyph-name="placemarker" horiz-adv-x="780" d="M678.453 319.763c63.276 69.333 101.926 161.646 101.926 262.914 0 215.506-174.683 390.189-390.189 390.189s-390.189-174.683-390.189-390.189c0-96.527 35.095-184.823 93.169-252.905l297.021-381.103 288.263 371.095zM390.123 816.882c129.317 0 234.14-104.823 234.14-234.14s-104.823-234.14-234.14-234.14-234.14 104.823-234.14 234.14 104.823 234.14 234.14 234.14z" />
<glyph unicode="&#xe602;" glyph-name="magnify" d="M925.113-51.331c-25.346 0-50.691 9.652-70.061 29.023l-246.692 246.692c-38.675 38.675-38.675 101.382 0 140.057s101.382 38.675 140.057 0l246.692-246.692c38.675-38.675 38.675-101.382 0-140.057-19.305-19.37-44.65-29.023-69.996-29.023zM396.993 178.683c-106.044 0-205.785 41.301-280.771 116.288s-116.288 174.727-116.288 280.837c0 106.044 41.301 205.785 116.288 280.771s174.727 116.288 280.771 116.288 205.785-41.301 280.771-116.288 116.288-174.727 116.288-280.771c0-106.11-41.301-205.785-116.288-280.837-74.986-74.986-174.727-116.288-280.771-116.288zM396.993 859.73c-75.84 0-147.149-29.548-200.795-83.128-53.646-53.646-83.194-124.889-83.128-200.795 0-75.84 29.548-147.149 83.128-200.795 53.646-53.646 124.889-83.128 200.795-83.128 75.84 0 147.149 29.548 200.795 83.128 53.646 53.646 83.128 124.955 83.128 200.795s-29.548 147.149-83.128 200.729c-53.646 53.646-124.955 83.194-200.795 83.194z" />
<glyph unicode="&#xe603;" glyph-name="home" horiz-adv-x="1212" d="M1212.377 369.026l-608.604 603.774-603.774-603.774h130.415v-420.226h338.113v352.604h270.491v-352.604h342.943v420.226z" />
<glyph unicode="&#xe604;" glyph-name="arrow-right" horiz-adv-x="1429" d="M922.506-51.136c-10.085 0-20.17 3.854-27.879 11.563-15.417 15.417-15.417 40.405 0 55.822l440.28 440.344-440.536 449.080c-15.288 15.545-15.031 40.533 0.514 55.822s40.533 15.031 55.822-0.514l466.745-475.738c7.259-7.387 11.306-17.28 11.306-27.622 0-10.471-4.175-22.933-11.563-30.32l-466.745-466.745c-7.708-7.837-17.858-11.691-27.943-11.691zM39.313 421.326c-21.776 0-39.441 17.665-39.441 39.441s17.665 39.441 39.441 39.441l1315.443 0.064c21.776 0 39.441-17.665 39.441-39.441s-17.665-39.441-39.441-39.441l-1315.443-0.064z" />
<glyph unicode="&#xe605;" glyph-name="arrow-left" horiz-adv-x="1438" d="M510.747 972.8c10.085 0 20.17-3.854 27.879-11.563 15.417-15.417 15.417-40.405 0-55.822l-440.28-440.344 440.536-449.080c15.288-15.545 15.031-40.533-0.514-55.822-15.545-15.288-40.533-15.031-55.822 0.514l-466.745 475.738c-7.259 7.387-11.306 17.28-11.306 27.622 0 10.471 4.175 22.933 11.563 30.32l466.745 466.745c7.773 7.837 17.858 11.691 27.943 11.691zM1393.94 500.338c21.776 0 39.441-17.665 39.441-39.441s-17.665-39.441-39.441-39.441l-1315.443-0.064c-21.776 0-39.441 17.665-39.441 39.441s17.665 39.441 39.441 39.441l1315.443 0.064z" />
<glyph unicode="&#xe606;" glyph-name="angle-up-thin" horiz-adv-x="1922" d="M1922.384 22.62c0-18.947-7.259-37.894-21.654-52.412-28.913-28.913-75.788-28.913-104.824 0l-826.656 826.656-843.265-827.148c-29.159-28.667-76.157-28.174-104.824 0.984s-28.174 76.157 0.984 104.824l893.216 876.238c13.903 13.657 32.481 21.162 51.92 21.162 19.685 0 43.061-7.874 56.964-21.654l876.361-876.238c14.518-14.395 21.777-33.342 21.777-52.412z" />
<glyph unicode="&#xe607;" glyph-name="angle-up-thick" horiz-adv-x="1809" d="M1809.113 78.188c0-33.070-12.603-66.255-37.926-91.577-50.529-50.529-132.509-50.529-183.039 0l-677.001 676.885-690.992-677.81c-50.992-50.067-132.972-49.257-183.039 1.734s-49.257 132.972 1.734 183.039l780.488 765.572c24.166 23.704 56.773 37.001 90.652 37.001 34.341 0 71.227-13.644 95.509-37.926l765.687-765.572c25.322-25.091 37.926-58.276 37.926-91.346z" />
<glyph unicode="&#xe608;" glyph-name="angle-right-thin" horiz-adv-x="545" d="M39.39-51.266c-10.093 0-20.186 3.867-27.92 11.535-15.402 15.402-15.402 40.373 0 55.84l440.365 440.365-440.627 449.212c-15.271 15.533-15.009 40.569 0.524 55.84s40.569 15.009 55.84-0.524l466.777-475.822c7.275-7.406 11.273-17.303 11.273-27.658 0-10.486-4.195-22.939-11.535-30.345l-466.777-466.843c-7.734-7.734-17.827-11.601-27.92-11.601z" />
<glyph unicode="&#xe609;" glyph-name="angle-right-thick" horiz-adv-x="580" d="M73.236-51.2c-18.718 0-37.502 7.134-51.835 21.467-28.601 28.601-28.601 75.003 0 103.604l383.133 383.198-383.656 391.117c-28.339 28.863-27.881 75.265 0.982 103.604s75.265 27.881 103.604-0.982l433.331-441.774c13.417-13.679 20.943-32.135 20.943-51.311 0-19.438-7.723-40.316-21.467-54.060l-433.331-433.397c-14.202-14.333-32.92-21.467-51.704-21.467z" />
<glyph unicode="&#xe60a;" glyph-name="angle-left-thin" horiz-adv-x="545" d="M506.167 972.8c10.093 0 20.186-3.867 27.92-11.535 15.402-15.402 15.402-40.373 0-55.84l-440.365-440.365 440.627-449.147c15.271-15.533 15.009-40.569-0.524-55.84s-40.569-15.009-55.84 0.524l-466.777 475.822c-7.275 7.406-11.273 17.303-11.273 27.658 0 10.486 4.195 22.939 11.535 30.345l466.777 466.843c7.668 7.668 17.827 11.535 27.92 11.535z" />
<glyph unicode="&#xe60b;" glyph-name="angle-left-thick" horiz-adv-x="580" d="M506.371 972.8c18.718 0 37.502-7.134 51.835-21.467 28.601-28.601 28.601-75.003 0-103.604l-383.133-383.198 383.656-391.117c28.339-28.863 27.881-75.265-0.982-103.604s-75.265-27.881-103.604 0.982l-433.331 441.774c-13.417 13.679-20.943 32.135-20.943 51.311 0 19.438 7.723 40.316 21.467 54.060l433.331 433.397c14.202 14.333 32.986 21.467 51.704 21.467z" />
<glyph unicode="&#xe60c;" glyph-name="angle-down-thin" horiz-adv-x="1922" d="M-0.123 898.857c0 18.947 7.259 37.894 21.654 52.412 28.913 28.913 75.788 28.913 104.824 0l826.656-826.656 843.265 827.148c29.159 28.667 76.157 28.174 104.824-0.984s28.174-76.157-0.984-104.824l-893.216-876.238c-13.903-13.657-32.481-21.162-51.92-21.162-19.685 0-43.061 7.874-56.964 21.654l-876.361 876.238c-14.518 14.518-21.777 33.465-21.777 52.412z" />
<glyph unicode="&#xe60d;" glyph-name="angle-down-thick" horiz-adv-x="1809" d="M0 843.412c0 33.070 12.603 66.255 37.926 91.577 50.529 50.529 132.509 50.529 183.039 0l677.001-676.885 690.992 677.81c50.992 50.067 132.972 49.257 183.039-1.734 50.067-50.992 49.257-132.972-1.734-183.039l-780.488-765.572c-24.166-23.704-56.773-37.001-90.652-37.001-34.341 0-71.227 13.644-95.509 37.926l-765.687 765.572c-25.322 25.091-37.926 58.161-37.926 91.346z" />
<glyph unicode="&#xe60e;" glyph-name="facebook" d="M575.87-64h-191.87v512h-128v176.45l128 0.058-0.208 103.952c0 143.952 39.034 231.54 208.598 231.54h141.176v-176.484h-88.23c-66.032 0-69.206-24.656-69.206-70.684l-0.262-88.324h158.69l-18.704-176.45-139.854-0.058-0.13-512z" />
<glyph unicode="&#xe60f;" glyph-name="facebook-square" d="M853.344 960h-682.66c-93.872 0-170.684-76.814-170.684-170.688v-682.626c0-93.938 76.812-170.686 170.684-170.686l682.66 0.002c93.876 0 170.656 76.746 170.656 170.688v682.622c0 93.874-76.782 170.688-170.656 170.688zM870.592 448h-166.592v-448h-192v448h-92.526v146.564h92.526v95.186c0 129.342 55.792 206.25 207.87 206.25h175.244v-158.57h-143.13c-42.482 0.070-47.752-22.152-47.752-63.512l-0.232-79.354h192l-25.408-146.564z" />
<glyph unicode="&#xe610;" glyph-name="facebook-circle" d="M512 960c282.77 0 512-229.23 512-512 0-261.094-195.438-476.53-448-508.026v380.026h176l16 128h-192v64c0 35.346 28.654 64 64 64h128v128h-128c-106.040 0-192-85.96-192-192v-64h-96v-128h96v-380.026c-252.562 31.496-448 246.932-448 508.026 0 282.77 229.23 512 512 512z" />
<glyph unicode="&#xe611;" glyph-name="instagram" d="M854 960h-684c-93.5 0-170-76.5-170-170v-684c0-93.5 76.5-170 170-170h684c93.5 0 170 76.5 170 170v684c0 93.5-76.5 170-170 170zM327.8 512h368.4c6.988-20.058 10.8-41.59 10.8-64 0-107.524-87.476-195-195-195s-195 87.476-195 195c0 22.41 3.812 43.942 10.8 64zM896 511.95v-383.95c0-35.2-28.8-64-64-64h-640c-35.2 0-64 28.8-64 64v384h100.108c-4.642-20.602-7.108-42.016-7.108-64 0-160.458 130.542-291 291-291s291 130.542 291 291c0 21.984-2.464 43.398-7.108 64l100.108-0.050zM896 736c0-17.6-14.4-32-32-32h-64c-17.6 0-32 14.4-32 32v64c0 17.6 14.4 32 32 32h64c17.6 0 32-14.4 32-32v-64z" />
<glyph unicode="&#xe612;" glyph-name="twitter" d="M1024 765.582c-37.676-16.708-78.164-28.002-120.66-33.080 43.372 26 76.686 67.17 92.372 116.23-40.596-24.078-85.556-41.56-133.41-50.98-38.32 40.83-92.922 66.34-153.346 66.34-116.022 0-210.088-94.058-210.088-210.078 0-16.466 1.858-32.5 5.44-47.878-174.6 8.764-329.402 92.4-433.018 219.506-18.084-31.028-28.446-67.116-28.446-105.618 0-72.888 37.088-137.192 93.46-174.866-34.438 1.092-66.832 10.542-95.154 26.278-0.020-0.876-0.020-1.756-0.020-2.642 0-101.788 72.418-186.696 168.522-206-17.626-4.8-36.188-7.372-55.348-7.372-13.538 0-26.698 1.32-39.528 3.772 26.736-83.46 104.32-144.206 196.252-145.896-71.9-56.35-162.486-89.934-260.916-89.934-16.958 0-33.68 0.994-50.116 2.94 92.972-59.61 203.402-94.394 322.042-94.394 386.422 0 597.736 320.124 597.736 597.744 0 9.108-0.206 18.168-0.61 27.18 41.056 29.62 76.672 66.62 104.836 108.748z" />
<glyph unicode="&#xe613;" glyph-name="twitter-square" d="M853.342 960h-682.656c-93.874 0-170.686-76.81-170.686-170.69v-682.622c0-93.938 76.812-170.688 170.686-170.688h682.656c93.876 0 170.658 76.75 170.658 170.69v682.62c0 93.88-76.782 170.69-170.658 170.69zM838.052 618.166c0.328-7.342 0.49-14.728 0.49-22.148 0-226.214-169.216-487.068-478.658-487.068-95.004 0-183.434 28.348-257.886 76.918 13.16-1.588 26.552-2.394 40.13-2.394 78.822 0 151.358 27.37 208.934 73.282-73.616 1.38-135.744 50.876-157.154 118.882 10.274-2 20.812-3.074 31.652-3.074 15.344 0 30.206 2.096 44.32 6.008-76.96 15.732-134.95 84.916-134.95 167.856 0 0.722 0 1.438 0.016 2.152 22.68-12.82 48.624-20.52 76.2-21.41-45.142 30.698-74.842 83.092-74.842 142.488 0 31.37 8.294 60.778 22.778 86.058 82.974-103.57 206.936-171.72 346.754-178.862-2.87 12.532-4.358 25.596-4.358 39.014 0 94.538 75.326 171.18 168.23 171.18 48.39 0 92.118-20.786 122.802-54.058 38.32 7.676 74.324 21.92 106.832 41.542-12.562-39.976-39.234-73.522-73.966-94.71 34.026 4.138 66.452 13.34 96.62 26.954-22.546-34.324-51.070-64.476-83.944-88.61z" />
<glyph unicode="&#xe614;" glyph-name="twitter-circle" d="M512 960c-282.77 0-512-229.23-512-512s229.23-512 512-512 512 229.23 512 512-229.23 512-512 512zM806.242 598.912c0.292-6.508 0.442-13.056 0.442-19.638 0-200.622-152.708-431.964-431.958-431.964-85.736 0-165.536 25.136-232.726 68.214 11.876-1.408 23.962-2.126 36.216-2.126 71.13 0 136.59 24.276 188.55 64.994-66.434 1.22-122.5 45.122-141.824 105.432 9.274-1.768 18.784-2.722 28.566-2.722 13.846 0 27.258 1.856 39.998 5.324-69.452 13.952-121.786 75.312-121.786 148.868 0 0.64 0 1.278 0.016 1.91 20.47-11.37 43.878-18.2 68.764-18.988-40.74 27.222-67.54 73.692-67.54 126.368 0 27.822 7.488 53.904 20.556 76.324 74.878-91.854 186.748-152.292 312.924-158.628-2.588 11.118-3.93 22.702-3.93 34.604 0 83.84 67.98 151.812 151.818 151.812 43.666 0 83.124-18.436 110.818-47.94 34.58 6.808 67.074 19.442 96.412 36.84-11.336-35.454-35.41-65.206-66.752-83.994 30.71 3.668 59.968 11.832 87.194 23.904-20.35-30.448-46.090-57.186-75.758-78.594z" />
<glyph unicode="&#xe615;" glyph-name="youtube-full" d="M832 832h-640c-105.6 0-192-86.4-192-192v-384c0-105.6 86.4-192 192-192h640c105.6 0 192 86.4 192 192v384c0 105.6-86.4 192-192 192zM384 192v512l320-256-320-256z" />
<glyph unicode="&#xe616;" glyph-name="youtube-hallow" d="M832 832h-640c-105.6 0-192-86.4-192-192v-384c0-105.6 86.4-192 192-192h640c105.6 0 192 86.4 192 192v384c0 105.6-86.4 192-192 192zM960 256c0-33.978-13.374-66.062-37.654-90.346-24.284-24.28-56.366-37.654-90.346-37.654h-640c-33.978 0-66.062 13.374-90.344 37.654-24.282 24.284-37.656 56.368-37.656 90.346v384c0 33.978 13.374 66.062 37.656 90.344s56.366 37.656 90.344 37.656h640c33.978 0 66.062-13.374 90.346-37.656 24.282-24.282 37.654-56.366 37.654-90.344v-384zM384 192l320 256-320 256z" />
<glyph unicode="&#xe617;" glyph-name="pinterest-circle" d="M512 960c-282.77 0-512-229.23-512-512s229.226-512 512-512c282.77 0 512 229.23 512 512s-229.23 512-512 512zM561.644 275.882c-46.52 3.614-66.042 26.656-102.504 48.808-20.060-105.176-44.564-206.016-117.14-258.686-22.404 158.968 32.894 278.364 58.57 405.114-43.784 73.706 5.27 222.034 97.62 185.474 113.626-44.948-98.4-274.008 43.932-302.616 148.62-29.868 209.288 257.858 117.142 351.424-133.158 135.106-387.598 3.080-356.31-190.356 7.614-47.292 56.472-61.638 19.524-126.902-85.22 18.892-110.65 86.102-107.376 175.712 5.268 146.674 131.784 249.364 258.686 263.566 160.484 17.964 311.106-58.908 331.906-209.876 23.412-170.39-72.448-354.93-244.050-341.662z" />
<glyph unicode="&#xe618;" glyph-name="pinterest-square" d="M853.35 960h-682.702c-94.25 0-170.648-76.42-170.648-170.686v-682.63c0-94.266 76.398-170.684 170.648-170.684h682.702c94.25 0 170.65 76.418 170.65 170.684v682.63c0 94.266-76.4 170.686-170.65 170.686zM561.644 275.882c-46.52 3.614-66.042 26.656-102.504 48.808-20.060-105.178-44.562-206.018-117.138-258.688-22.404 158.968 32.894 278.364 58.57 405.114-43.786 73.706 5.27 222.034 97.62 185.474 113.626-44.948-98.4-274.008 43.932-302.616 148.62-29.868 209.288 257.858 117.142 351.424-133.158 135.106-387.598 3.080-356.31-190.356 7.614-47.292 56.472-61.638 19.524-126.902-85.22 18.892-110.65 86.102-107.376 175.712 5.268 146.674 131.784 249.364 258.686 263.566 160.484 17.964 311.106-58.908 331.906-209.876 23.41-170.388-72.45-354.928-244.052-341.66z" />
<glyph unicode="&#xe619;" glyph-name="pinterest" d="M441.139 282.726c-26.88-140.954-59.699-276.122-156.979-346.726-30.003 213.094 44.083 373.094 78.49 542.976-58.675 98.816 7.066 297.574 130.867 248.576 152.32-60.262-131.891-367.258 58.88-405.606 199.219-40.038 280.525 345.6 157.030 470.989-178.483 181.146-519.578 4.198-477.594-255.027 10.189-63.386 75.674-82.637 26.163-170.086-114.227 25.293-148.326 115.405-143.923 235.52 7.066 196.557 176.64 334.182 346.726 353.229 215.142 24.115 417.024-78.95 444.826-281.293 31.386-228.352-97.024-475.699-327.117-457.882-62.31 4.762-88.474 35.635-137.37 65.331z" />
<glyph unicode="&#xe61a;" glyph-name="unknown-placemarker" horiz-adv-x="780" d="M647.506 334.906c56.505 61.921 90.972 144.294 90.972 234.723 0 192.405-155.966 348.363-348.355 348.363-192.397 0-348.363-155.958-348.363-348.363 0-86.161 31.354-164.966 83.182-225.786l265.18-340.243 257.383 331.307zM390.123 778.65c115.448 0 209.021-93.581 209.021-209.021 0-115.432-93.573-209.013-209.021-209.013-115.432 0-209.029 93.581-209.029 209.013 0 115.44 93.589 209.021 209.029 209.021zM449.372 685.344c-17.040 12.34-38.459 18.502-64.224 18.502-19.626 0-36.172-4.347-49.644-13.016-21.316-13.558-32.674-36.612-34.034-69.113h49.447c0 9.471 2.767 18.581 8.277 27.376 5.51 8.787 14.879 13.165 28.084 13.165 13.417 0 22.676-3.561 27.722-10.674 5.070-7.129 7.616-15.036 7.616-23.714 0-7.514-2.279-14.431-6.838-20.688-2.499-3.678-5.801-7.035-9.888-10.116l-12.458-9.739c-12.277-9.597-19.894-18.062-22.849-25.404-2.963-7.373-4.795-20.688-5.478-39.96h46.374c0.126 9.118 0.865 15.854 2.224 20.184 2.161 6.838 6.547 12.828 13.142 17.96l12.112 9.416c12.277 9.573 20.601 17.441 24.924 23.619 7.381 10.132 11.075 22.621 11.075 37.453 0.008 24.185-8.52 42.436-25.584 54.745zM416.281 470.028c0-15.341-12.436-27.777-27.777-27.777s-27.777 12.436-27.777 27.777c0 15.341 12.436 27.777 27.777 27.777s27.777-12.436 27.777-27.777z" />
<glyph unicode="&#xe61b;" glyph-name="external" d="M1022.84 950.766c0 1.16 0 1.16 0 2.319s0 1.16-1.16 2.319c0 0 0 1.16 0 1.16s0 0 0 0c0 1.16-1.16 1.16-1.16 2.319 0 0-1.16 1.16-1.16 1.16 0 1.16-1.16 1.16-1.16 2.319 0 0-1.16 1.16-1.16 1.16s-1.16 1.16-1.16 1.16c0 0-1.16 1.16-1.16 1.16s-1.16 1.16-2.319 1.16c0 0-1.16 1.16-1.16 1.16-1.16 0-1.16 1.16-2.319 1.16 0 0-1.16 0-1.16 1.16 0 0 0 0-1.16 0 0 0-1.16 0-1.16 0-1.16 0-1.16 0-2.319 0s-1.16 0-2.319 0-1.16 0-2.319 0-1.16 0-2.319 0c0 0-1.16 0-1.16 0l-185.549-1.16c-15.076 0-27.832-12.757-27.832-27.832s12.757-27.832 27.832-27.832l117.128 1.16-180.911-183.23c-6.958-6.958-9.277-16.236-6.958-25.513 1.16-5.798 3.479-10.437 8.118-13.916 5.798-5.798 12.757-8.118 19.715-8.118s13.916 2.319 19.715 8.118v0l180.911 184.39 1.16-117.128c0-15.076 12.757-27.832 27.832-27.832 8.118 0 15.076 3.479 19.715 8.118s8.118 11.597 8.118 19.715l-1.16 185.549c0 0 0 1.16 0 1.16 0 1.16 0 1.16 0 2.319 0 0 0 1.16 0 2.319zM1021.681 943.808c0 1.16 0 1.16 0 2.319s-1.16 2.319-1.16 2.319c0 0 0 1.16 0 1.16s0 0 0 1.16-1.16 2.319-1.16 2.319c0 1.16-1.16 1.16-1.16 2.319s-1.16 1.16-1.16 2.319c0 1.16-1.16 1.16-1.16 2.319-1.16 1.16-1.16 1.16-2.319 2.319 0 0-1.16 1.16-1.16 1.16-1.16 1.16-1.16 1.16-2.319 2.319-1.16 0-1.16 1.16-2.319 1.16s-1.16 1.16-2.319 1.16c-1.16 0-1.16 1.16-2.319 1.16 0 0-1.16 0-1.16 0s-1.16 0-2.319 0c-1.16 0-1.16 0-2.319 1.16-1.16 0-2.319 0-2.319 1.16-1.16 0-1.16 0-2.319 0s-2.319 0-3.479 0c0 0-1.16 0-1.16 0l-234.256-1.16c-19.715 0-34.79-16.236-34.79-35.95s16.236-34.79 35.95-34.79l148.439 1.16-231.937-233.096c-8.118-9.277-11.597-20.874-9.277-31.311 1.16-6.958 4.639-12.757 9.277-18.555 6.958-6.958 16.236-10.437 25.513-10.437s18.555 3.479 25.513 10.437v0l230.777 233.096 1.16-148.439c0-19.715 16.236-34.79 35.95-34.79 9.277 0 18.555 4.639 25.513 10.437 5.798 6.958 10.437 15.076 10.437 25.513l-1.16 234.256c0 0 0 1.16 0 1.16 0 1.16 0 2.319 0 3.479-3.479 0-3.479 1.16-3.479 1.16zM68.421 138.988c0-66.102 53.345-120.607 120.607-120.607l644.784-1.16c66.102 0 120.607 53.345 120.607 120.607l-1.16 415.166h70.741v-415.166c0-104.371-84.657-189.028-189.028-189.028l-654.061 1.16c-99.733 0-180.911 81.178-180.911 180.911l-1.16 652.901c0 104.371 84.657 189.028 189.028 189.028h419.805v-70.741h-418.646c-66.102 0-120.607-53.345-120.607-120.607v-642.464z" />
<glyph unicode="&#xe61c;" glyph-name="download" horiz-adv-x="768" d="M73.956 947.642c-39.111 0-71.822-32.711-71.822-71.822v-862.578c0-39.111 32.711-71.822 71.822-71.822h620.089c39.111 0 71.822 32.711 71.822 71.822v667.022c0 1.422 0 2.844-0.711 3.556 0 0 0 0.711 0 0.711 0 0.711-0.711 0.711-0.711 1.422 0 0 0 0.711 0 0.711 0 0.711-0.711 0.711-0.711 1.422 0 0-0.711 0.711-0.711 0.711s0 0.711 0 0.711c0 0-0.711 0.711-0.711 0.711 0 0.711-0.711 0.711-0.711 1.422 0 0-0.711 0.711-0.711 0.711 0 0.711-0.711 0.711-0.711 1.422 0 0-0.711 0.711-0.711 0.711s-0.711 0.711-0.711 0.711l-260.267 249.6c-1.422 1.422-2.844 2.133-4.267 3.556-0.711 0-1.422 0.711-1.422 0.711-0.711 0-1.422 0.711-1.422 0.711-0.711 0-1.422 0.711-1.422 0.711-0.711 0-2.133 0-2.844 0h-2.133l-411.022-2.844zM73.956 912.087h396.089v-177.778c0-39.111 32.711-71.822 71.822-71.822h188.444v-649.244c0-19.911-16.356-36.267-36.267-36.267h-620.089c-19.911 0-36.267 16.356-36.267 36.267v862.578c0 19.911 16.356 36.267 36.267 36.267zM505.6 887.909l198.4-189.867h-162.133c-19.911 0-36.267 16.356-36.267 36.267v153.6z" />
<glyph unicode="&#xe61d;" glyph-name="download-pdf" horiz-adv-x="768" d="M73.956 947.642c-39.111 0-71.822-32.711-71.822-71.822v-862.578c0-39.111 32.711-71.822 71.822-71.822h620.089c39.111 0 71.822 32.711 71.822 71.822v667.022c0 1.422 0 2.844-0.711 3.556 0 0 0 0.711 0 0.711 0 0.711-0.711 0.711-0.711 1.422 0 0 0 0.711 0 0.711 0 0.711-0.711 0.711-0.711 1.422 0 0-0.711 0.711-0.711 0.711s0 0.711 0 0.711c0 0-0.711 0.711-0.711 0.711 0 0.711-0.711 0.711-0.711 1.422 0 0-0.711 0.711-0.711 0.711 0 0.711-0.711 0.711-0.711 1.422 0 0-0.711 0.711-0.711 0.711s-0.711 0.711-0.711 0.711l-260.267 249.6c-1.422 1.422-2.844 2.133-4.267 3.556-0.711 0-1.422 0.711-1.422 0.711-0.711 0-1.422 0.711-1.422 0.711-0.711 0-1.422 0.711-1.422 0.711-0.711 0-2.133 0-2.844 0h-2.133l-411.022-2.844zM73.956 912.087h396.089v-177.778c0-39.111 32.711-71.822 71.822-71.822h188.444v-649.244c0-19.911-16.356-36.267-36.267-36.267h-620.089c-19.911 0-36.267 16.356-36.267 36.267v862.578c0 19.911 16.356 36.267 36.267 36.267zM505.6 887.909l198.4-189.867h-162.133c-19.911 0-36.267 16.356-36.267 36.267v153.6zM248.178 401.778c-12.089-9.956-29.867-15.644-52.622-15.644h-43.378v-75.378h-43.378v209.778h89.6c20.622 0 36.978-5.689 49.067-16.356s18.489-27.733 18.489-49.778c0-24.889-5.689-41.956-17.778-52.622zM214.756 477.156c-5.689 4.978-13.511 7.111-23.467 7.111h-39.111v-61.156h39.111c9.956 0 17.778 2.844 23.467 7.822s8.533 12.8 8.533 23.467-2.844 18.489-8.533 22.756zM423.822 515.556c14.933-4.978 26.311-13.511 35.556-26.311 7.111-10.667 12.089-21.333 14.933-33.422s4.267-23.467 4.267-34.844c0-27.733-5.689-51.2-17.067-70.4-14.933-26.311-38.4-39.111-69.689-39.111h-90.311v209.067h89.6c12.8-0.711 23.467-2.133 32.711-4.978zM343.467 484.267v-136.533h40.533c20.622 0 34.844 9.956 43.378 30.578 4.267 11.378 6.4 24.178 6.4 39.822 0 21.333-3.556 37.689-9.956 49.067s-19.911 17.067-39.822 17.067h-40.533zM510.578 519.822h148.622v-36.267h-105.244v-48.356h92.444v-36.267h-92.444v-87.467h-43.378v208.356z" />
<glyph unicode="&#xe61e;" glyph-name="download-doc" horiz-adv-x="768" d="M73.956 947.642c-39.111 0-71.822-32.711-71.822-71.822v-862.578c0-39.111 32.711-71.822 71.822-71.822h620.089c39.111 0 71.822 32.711 71.822 71.822v667.022c0 1.422 0 2.844-0.711 3.556 0 0 0 0.711 0 0.711 0 0.711-0.711 0.711-0.711 1.422 0 0 0 0.711 0 0.711 0 0.711-0.711 0.711-0.711 1.422 0 0-0.711 0.711-0.711 0.711s0 0.711 0 0.711c0 0-0.711 0.711-0.711 0.711 0 0.711-0.711 0.711-0.711 1.422 0 0-0.711 0.711-0.711 0.711 0 0.711-0.711 0.711-0.711 1.422 0 0-0.711 0.711-0.711 0.711s-0.711 0.711-0.711 0.711l-260.267 249.6c-1.422 1.422-2.844 2.133-4.267 3.556-0.711 0-1.422 0.711-1.422 0.711-0.711 0-1.422 0.711-1.422 0.711-0.711 0-1.422 0.711-1.422 0.711-0.711 0-2.133 0-2.844 0h-2.133l-411.022-2.844zM73.956 912.087h396.089v-177.778c0-39.111 32.711-71.822 71.822-71.822h188.444v-649.244c0-19.911-16.356-36.267-36.267-36.267h-620.089c-19.911 0-36.267 16.356-36.267 36.267v862.578c0 19.911 16.356 36.267 36.267 36.267zM505.6 887.909l198.4-189.867h-162.133c-19.911 0-36.267 16.356-36.267 36.267v153.6zM201.956 515.556c14.222-4.978 26.311-13.511 35.556-26.311 7.111-10.667 12.089-21.333 14.933-33.422s4.267-23.467 4.267-34.133c0-27.733-5.689-51.2-16.356-70.4-14.933-25.6-38.4-38.4-69.689-38.4h-90.311v206.933h89.6c12.8 0 23.467-1.422 32-4.267zM123.022 484.267v-135.822h39.822c20.622 0 34.844 9.956 42.667 30.578 4.267 11.378 6.4 24.178 6.4 39.822 0 21.333-3.556 37.689-9.956 48.356-6.4 11.378-19.911 17.067-39.822 17.067h-39.111zM448.711 330.667c-15.644-16.356-38.4-24.178-68.267-24.178s-52.622 7.822-68.267 24.178c-21.333 19.911-31.289 48.356-31.289 85.333 0 38.4 10.667 66.844 31.289 85.333 15.644 16.356 38.4 24.178 68.267 24.178s52.622-7.822 68.267-24.178c20.622-19.2 31.289-47.644 31.289-85.333 0-36.978-9.956-65.422-31.289-85.333zM421.689 362.667c9.956 12.8 14.933 30.578 14.933 54.044s-4.978 41.244-14.933 54.044c-9.956 12.8-23.467 19.2-41.244 19.2-17.067 0-30.578-6.4-41.244-19.2s-15.644-30.578-15.644-54.044 4.978-41.244 15.644-54.044c9.956-12.8 24.178-19.2 41.244-19.2 17.778 0 31.289 6.4 41.244 19.2zM533.333 498.489c17.067 17.067 37.689 25.6 64 25.6 34.844 0 59.733-11.378 76.089-34.133 8.533-12.8 13.511-25.6 14.222-38.4h-43.378c-2.844 9.956-6.4 17.778-10.667 22.756-7.822 9.244-19.2 13.511-34.133 13.511-15.644 0-27.733-6.4-36.267-19.2-9.244-12.8-13.511-30.578-13.511-54.044s4.978-40.533 14.222-52.622c9.244-11.378 21.333-17.067 35.556-17.067 14.933 0 26.311 4.978 34.133 14.933 4.267 5.689 7.822 13.511 10.667 24.178h43.378c-3.556-22.756-13.511-41.244-28.444-55.467-15.644-14.222-34.844-21.333-59.022-21.333-29.867 0-52.622 9.244-69.689 28.444s-25.6 45.511-25.6 78.933c-0.711 36.267 9.244 64 28.444 83.911z" />
<glyph unicode="&#xe61f;" glyph-name="download-xls" horiz-adv-x="768" d="M71.822 942.664c-39.111 0-71.822-32.711-71.822-71.822v-862.578c0-39.111 32.711-71.822 71.822-71.822h620.089c39.111 0 71.822 32.711 71.822 71.822v667.022c0 1.422 0 2.844-0.711 3.556 0 0 0 0.711 0 0.711 0 0.711-0.711 0.711-0.711 1.422 0 0 0 0.711 0 0.711 0 0.711-0.711 0.711-0.711 1.422 0 0-0.711 0.711-0.711 0.711s0 0.711 0 0.711c0 0-0.711 0.711-0.711 0.711 0 0.711-0.711 0.711-0.711 1.422 0 0-0.711 0.711-0.711 0.711 0 0.711-0.711 0.711-0.711 1.422 0 0-0.711 0.711-0.711 0.711s-0.711 0.711-0.711 0.711l-258.844 247.467c-1.422 1.422-2.844 2.133-4.267 3.556-0.711 0-1.422 0.711-1.422 0.711-0.711 0-1.422 0.711-1.422 0.711-0.711 0-1.422 0.711-1.422 0.711-0.711 0-2.133 0-2.844 0h-2.844l-411.733-0.711zM71.822 907.109h396.089v-177.778c0-39.111 32.711-71.822 71.822-71.822h188.444v-649.244c0-19.911-16.356-36.267-36.267-36.267h-620.089c-19.911 0-36.267 16.356-36.267 36.267v862.578c0 19.911 16.356 36.267 36.267 36.267zM503.467 882.931l198.4-189.867h-162.133c-19.911 0-36.267 16.356-36.267 36.267v153.6zM159.289 307.911h-50.489l66.133 105.244-63.289 101.689h51.911l36.978-67.556 37.689 67.556h49.778l-63.289-99.556 66.844-106.667h-52.622l-39.111 70.4-40.533-71.111zM317.867 514.844h43.378v-169.244h103.111v-36.978h-146.489v206.222zM524.089 371.911c1.422-9.244 4.267-16.356 7.822-21.333 7.111-8.533 19.2-12.8 36.978-12.8 10.667 0 18.489 1.422 25.6 3.556 12.089 4.267 18.489 12.089 18.489 24.178 0 7.111-2.844 12.089-9.244 15.644-5.689 3.556-15.644 7.111-28.444 9.956l-22.044 4.978c-22.044 4.978-36.978 9.956-45.511 15.644-14.222 9.244-20.622 24.178-20.622 44.8 0 18.489 7.111 34.133 20.622 46.222s33.422 18.489 59.733 18.489c22.044 0 40.533-5.689 56.178-17.067s23.467-28.444 24.178-50.489h-41.244c-0.711 12.089-6.4 21.333-16.356 26.311-7.111 3.556-15.644 4.978-25.6 4.978-11.378 0-20.622-2.133-27.022-6.4-7.111-4.267-9.956-10.667-9.956-18.489 0-7.111 3.556-12.8 9.956-16.356 4.267-2.133 13.511-4.978 27.733-8.533l36.267-8.533c15.644-3.556 27.733-8.533 35.556-14.933 12.089-9.956 18.489-23.467 18.489-41.956 0-19.2-7.111-34.844-22.044-46.933s-35.556-18.489-61.867-18.489c-27.022 0-48.356 6.4-64 18.489s-23.467 29.156-23.467 50.489h39.822z" />
<glyph unicode="&#xe800;" glyph-name="question" d="M510.976 972.8c-281.6 0-510.976-229.376-510.976-510.976s229.376-510.976 510.976-510.976c281.6 0 510.976 229.376 510.976 510.976 1.024 281.6-228.352 510.976-510.976 510.976zM512 148.48c-36.864 0-66.56 29.696-66.56 66.56s29.696 66.56 66.56 66.56c36.864 0 66.56-29.696 66.56-66.56s-29.696-66.56-66.56-66.56zM692.224 509.952c-10.24-14.336-30.72-33.792-59.392-56.32l-29.696-23.552c-15.36-12.288-26.624-26.624-31.744-43.008-3.072-9.216-5.12-22.528-5.12-40.96 0-4.096-3.072-7.168-7.168-7.168h-96.256c-4.096 0-7.168 3.072-7.168 7.168 2.048 41.984 6.144 71.68 13.312 88.064 7.168 17.408 25.6 37.888 54.272 60.416l29.696 23.552c10.24 7.168 17.408 15.36 23.552 24.576 11.264 15.36 16.384 31.744 16.384 49.152 0 20.48-6.144 39.936-18.432 56.32-12.288 17.408-33.792 25.6-66.56 25.6-31.744 0-54.272-10.24-67.584-31.744-12.288-18.432-18.432-38.912-19.456-58.368 0-4.096-3.072-7.168-7.168-7.168h-102.4c-4.096 0-7.168 3.072-7.168 7.168 5.12 73.728 31.744 125.952 80.896 157.696 31.744 20.48 71.68 30.72 118.784 30.72 61.44 0 112.64-14.336 153.6-44.032s61.44-72.704 61.44-131.072c0-33.792-9.216-63.488-26.624-87.040z" />
<glyph unicode="&#xe801;" glyph-name="plus" d="M443.972 972.8h143.217v-1024h-143.217v1024zM0 528.828h1024v-143.217h-1024v143.217z" />
<glyph unicode="&#xe802;" glyph-name="minus" d="M0 528.828h1024v-143.217h-1024v143.217z" />
<glyph unicode="&#xe900;" glyph-name="account" horiz-adv-x="899" d="M707.223 714.958c0-142.402-115.44-257.842-257.842-257.842s-257.842 115.44-257.842 257.842c0 142.402 115.44 257.842 257.842 257.842s257.842-115.44 257.842-257.842zM88.403-51.2c-58.935 0-99.453 55.252-88.403 110.504 47.885 202.59 232.058 349.928 445.698 349.928s397.813-147.338 445.698-349.928c14.734-55.252-29.468-110.504-88.403-110.504h-714.59z" />
</font>
</defs>
</svg>
